"X Men Dark Phoenix 2019 1080p BluRay x264 DTS [MW]"


X Men Dark Phoenix 2019 1080p BluRay x264 DTS [MW] X Men Dark Phoenix 2019 1080p BluRay x264 DTS [MW] using magnet link
Update Tracker
Seeders: 153
Leechers: 17
Size: 2.97 GB
Type: video
Tags: 1080
Added: 8 months ago
Updated: 12 hours ago

Verified 8    -8

Report this torrent
X Men Dark Phoenix 2019 1080p BluRay x264 DTS [MW]



Hash: 6e3cac7ae4b30505f97037c27ffba8c35675890b
This torrent contains 1 files. Total size 2.97 GB. See file listing below
File Name Size
X Men Dark Phoenix 2019 1080p BluRay x264 DTS [MW].mkv 2.97 GB





General
Format : Matroska
Format version : Version 4
File size : 2.97 GiB
Duration : 1 h 53 min
Overall bit rate : 3 733 kb/s

Video
ID : 1
Format : AVC
Format/Info : Advanced Video Codec
Format profile : [email protected]
Format settings : CABAC / 4 Ref Frames
Format settings, CABAC : Yes
Format settings, Reference frames : 4 frames
Codec ID : V_MPEG4/ISO/AVC
Duration : 1 h 53 min
Bit rate : 3 000 kb/s
Width : 1 920 pixels
Height : 804 pixels
Display aspect ratio : 2.40:1
Frame rate mode : Constant
Frame rate : 23.976 (24000/1001) FPS
Color space : YUV
Chroma subsampling : 4:2:0
Bit depth : 8 bits
Scan type : Progressive
Bits/(Pixel*Frame) : 0.081
Stream size : 2.35 GiB (79%)
Writing library : x264 core 157 r2935 545de2f

Audio
ID : 2
Format : DTS
Format/Info : Digital Theater Systems
Codec ID : A_DTS
Duration : 1 h 53 min
Bit rate mode : Constant
Bit rate : 768 kb/s
Channel(s) : 6 channels
Channel layout : C L R Ls Rs LFE
Sampling rate : 48.0 kHz
Frame rate : 93.750 FPS (512 SPF)
Bit depth : 16 bits
Compression mode : Lossy
Stream size : 626 MiB (21%)
Language : English
Default : Yes
Forced : No

Text #1
ID : 3
Format : UTF-8
Codec ID : S_TEXT/UTF8
Codec ID/Info : UTF-8 Plain Text
Duration : 31 min 20 s
Bit rate : 0 b/s
Count of elements : 4
Stream size : 168 Bytes (0%)
Language : English
Default : Yes
Forced : Yes

Text #2
ID : 4
Format : VobSub
Muxing mode : zlib
Codec ID : S_VOBSUB
Codec ID/Info : Picture based subtitle format used on DVDs
Duration : 1 h 53 min
Bit rate : 6 930 b/s
Count of elements : 1415
Stream size : 5.64 MiB (0%)
Language : English
Default : No
Forced : No


Click To View Image

https://pichub.site/image/hhSvk
https://pichub.site/image/hhD9Q
https://pichub.site/image/hhdSv
https://pichub.site/image/hh7gd
https://pichub.site/image/hhVX9
https://pichub.site/image/hhkMu


GENRE:Action / Adventure / Sci-Fi
RUNTIME:113 min
CAST:James McAvoy / Michael Fassbender / Jennifer Lawrence / Nicholas Hoult / Sophie Turner…
DIRECTOR:Simon Kinberg
WRITER:Simon Kinberg
RELEASE DATE:05 Jun 2019 (Sweden)
IMDB:IMDB link
COMPANY:Twentieth Century Fox
LANGUAGE:United States / Canada

Top related results

Name Size Files Added Seeds Peers
X Men Dark Phoenix 2019 1080p BluRay x264 DTS [MW]   8   -8 Verified  
X Men Dark Phoenix 2019 1080p BluRay x264 DTS [MW] torrent file X Men Dark Phoenix 2019 1080p BluRay x264 DTS [MW] using magnet link Uploaded 8 months ago
2.97 GB 1 8 months ago 153 17
X-Men.Dark.Phoenix.2019.720p.BluRay.x264-NeZu   4   -1  
X-Men.Dark.Phoenix.2019.720p.BluRay.x264-NeZu torrent file X-Men.Dark.Phoenix.2019.720p.BluRay.x264-NeZu using magnet link Uploaded 8 months ago
1.12 GB 6 8 months ago 73 12
X-Men Dark Phoenix 2019 Movies HDCam x264 Clean Audio New Source with Sample ☻rDX☻   10   -10 Verified  
X-Men Dark Phoenix 2019 Movies HDCam x264 Clean Audio New Source with Sample ☻rDX☻ torrent file X-Men Dark Phoenix 2019 Movies HDCam x264 Clean Audio New Source with Sample ☻rDX☻ using magnet link Uploaded 11 months ago
706 MB 2 11 months ago 59 9
X Men Dark Phoenix 2019 1080p BRRip x264 Hindi English DD 5.1 ESubs - LOKiHD - Telly     -1  
X Men Dark Phoenix 2019 1080p BRRip x264 Hindi English DD 5.1 ESubs - LOKiHD - Telly torrent file X Men Dark Phoenix 2019 1080p BRRip x264 Hindi English DD 5.1 ESubs - LOKiHD - Telly using magnet link Uploaded 8 months ago
3.12 GB 3 8 months ago 22 5
X-Men Dark Phoenix 2019 NEW HDCAM-1XBET     -2  
X-Men Dark Phoenix 2019 NEW HDCAM-1XBET torrent file X-Men Dark Phoenix 2019 NEW HDCAM-1XBET using magnet link Uploaded 11 months ago
2.38 GB 4 11 months ago 11 2