"Toy Story (1995) 1080p BluRay Dual Audio [Hindi+English]SeedUpMovies"


Toy Story (1995) 1080p BluRay Dual Audio [Hindi+English]SeedUpMovies Toy Story (1995) 1080p BluRay Dual Audio [Hindi+English]SeedUpMovies using magnet link
Update Tracker
Seeders: 4
Leechers: 2
Size: 1.19 GB
Type:
Tags: N/A
Added: 6 months ago
Updated: 19 hours ago
2    -1

Report this torrent
Hash: a68752f312d33239c8359b7ef7951cf503d95069
This torrent contains 1 files. Total size 1.19 GB. See file listing below
File Name Size
Toy Story (1995) 1080p BluRay Dual Audio [Hindi+English]SeedUpMovies.mkv 1.19 GB



Complete name : Toy Story (1995) 1080p BluRay Dual Audio [Hindi+English]SeedUpMovies.mkv
Format : Matroska
Format version : Version 4
File size : 1.19 GiB
Duration : 1 h 21 min
Overall bit rate : 2 095 kb/s

Video
ID : 1
Format : AVC
Format/Info : Advanced Video Codec
Duration : 1 h 21 min
Bit rate : 1 842 kb/s
Width : 1 920 pixels
Height : 1 080 pixels
Chroma subsampling : 4:2:0
Bit depth : 8 bits
Scan type : Progressive
Bits/(Pixel*Frame) : 0.037
Stream size : 1.04 GiB (88%)

Audio #1
ID : 2
Format : AAC LC
Codec ID : A_AAC-2
Duration : 1 h 21 min
Bit rate : 125 kb/s
Channel(s) : 2 channels
Channel layout : L R
Sampling rate : 48.0 kHz
Frame rate : 46.875 FPS (1024 SPF)
Compression mode : Lossy
Delay relative to video : -125 ms
Stream size : 72.7 MiB (6%)
Title : SeedUpMovies
Language : Hindi

Audio #2
ID : 3
Format : AAC LC
Codec ID : A_AAC-2
Duration : 1 h 21 min
Bit rate : 125 kb/s
Channel(s) : 2 channels
Channel layout : L R
Sampling rate : 48.0 kHz
Frame rate : 46.875 FPS (1024 SPF)
Compression mode : Lossy
Delay relative to video : -125 ms
Stream size : 72.7 MiB (6%)
Title : SeedUpMovies
Language : English



Screenshots











Top related results

Name Size Files Added Seeds Peers
Toy Story 4 (2019) [BluRay] [1080p] [YTS.LT]   81   -162 Verified   1comments
Toy Story 4 (2019) [BluRay] [1080p] [YTS.LT] torrent file Toy Story 4 (2019) [BluRay] [1080p] [YTS.LT] using magnet link Uploaded 8 months ago
1.56 GB 2 8 months ago 1,356 49
Toy Story 4 (2019) [BluRay] [720p] [YTS.LT]   68   -60 Verified  
Toy Story 4 (2019) [BluRay] [720p] [YTS.LT] torrent file Toy Story 4 (2019) [BluRay] [720p] [YTS.LT] using magnet link Uploaded 8 months ago
882 MB 2 8 months ago 1,065 48
Toy Story 4 (2019) [BluRay RIP][AC3 5.1 Castellano][www.pctnew.ORG][www.descargas2020.ORG]   24   -21 Verified  
Toy Story 4 (2019) [BluRay RIP][AC3 5.1 Castellano][www.pctnew.ORG][www.descargas2020.ORG] torrent file Toy Story 4 (2019) [BluRay RIP][AC3 5.1 Castellano][www.pctnew.ORG][www.descargas2020.ORG] using magnet link Uploaded 7 months ago
1.78 GB 3 7 months ago 606 4
[WWW.BLUDV.TV] Toy Story 4 2019 (1080p - BluRay) Acesse o ORIGINAL WWW.BLUDV.TV   28   -31 Verified  
[WWW.BLUDV.TV] Toy Story 4 2019 (1080p - BluRay) Acesse o ORIGINAL WWW.BLUDV.TV torrent file [WWW.BLUDV.TV] Toy Story 4 2019 (1080p - BluRay) Acesse o ORIGINAL WWW.BLUDV.TV using magnet link Uploaded 7 months ago
2.48 GB 5 7 months ago 565 125
[WWW.BLUDV.TV] Toy Story 4 2019 (720p - BluRay) [DUBLADO] Acesse o ORIGINAL WWW.BLUDV.TV   32   -35 Verified  
[WWW.BLUDV.TV] Toy Story 4 2019 (720p - BluRay) [DUBLADO] Acesse o ORIGINAL WWW.BLUDV.TV torrent file [WWW.BLUDV.TV] Toy Story 4 2019 (720p - BluRay) [DUBLADO] Acesse o ORIGINAL WWW.BLUDV.TV using magnet link Uploaded 8 months ago
1.08 GB 5 8 months ago 531 130